osu file format v14

[General]
AudioFilename: 6. The Handler.mp3
AudioLeadIn: 1500
PreviewTime: -1
Countdown: 1
SampleSet: None
StackLeniency: 0.7
Mode: 3
LetterboxInBreaks: 1
WidescreenStoryboard: 0

[Editor]
DistanceSpacing: 0.8
BeatDivisor: 8
GridSize: 32
TimelineZoom: 1

[Metadata]
Title:The Handler
TitleUnicode:The Handler
Artist:Muse
ArtistUnicode:Muse
Creator:Macizaguerrera
Version:Easy
Source:
Tags:
BeatmapID:832503
BeatmapSetID:380477

[Difficulty]
HPDrainRate:0
CircleSize:5
OverallDifficulty:1
ApproachRate:2
SliderMultiplier:1.4
SliderTickRate:1

[Events]
//Background and Video events
//Break Periods
2,72798,79917
2,198818,206038
//Storyboard Layer 0 (Background)
//Storyboard Layer 1 (Fail)
//Storyboard Layer 2 (Pass)
//Storyboard Layer 3 (Foreground)
//Storyboard Sound Samples

[TimingPoints]
2373,269.058295964126,4,1,0,100,1,0

[HitObjects]
51,192,7721,5,0,0:0:0:0:
153,192,8696,1,0,0:0:0:0:
358,192,9403,1,0,0:0:0:0:
51,192,10311,1,0,0:0:0:0:
153,192,11320,1,0,0:0:0:0:
358,192,12093,1,0,0:0:0:0:
51,192,13001,1,0,0:0:0:0:
358,192,14044,1,0,0:0:0:0:
51,192,14952,1,0,0:0:0:0:
358,192,15994,1,0,0:0:0:0:
51,192,16835,1,0,0:0:0:0:
358,192,17642,1,0,0:0:0:0:
153,192,18651,1,0,0:0:0:0:
358,192,19459,1,0,0:0:0:0:
51,192,20434,1,0,0:0:0:0:
153,192,21376,1,0,0:0:0:0:
153,192,22385,1,0,0:0:0:0:
51,192,26051,1,0,0:0:0:0:
153,192,26925,1,0,0:0:0:0:
51,192,27766,1,0,0:0:0:0:
358,192,28775,1,0,0:0:0:0:
51,192,29851,1,0,0:0:0:0:
153,192,30658,1,0,0:0:0:0:
460,192,31600,1,0,0:0:0:0:
358,192,32508,1,0,0:0:0:0:
153,192,33483,1,0,0:0:0:0:
51,192,34290,1,0,0:0:0:0:
358,192,35165,1,0,0:0:0:0:
153,192,36174,1,0,0:0:0:0:
51,192,37183,1,0,0:0:0:0:
358,192,38091,1,0,0:0:0:0:
153,192,38932,1,0,0:0:0:0:
51,192,39907,1,0,0:0:0:0:
358,192,40849,1,0,0:0:0:0:
153,192,41723,1,0,0:0:0:0:
51,192,42732,1,0,0:0:0:0:
358,192,43674,1,0,0:0:0:0:
153,192,44649,1,0,0:0:0:0:
51,192,45389,1,0,0:0:0:0:
358,192,46398,1,0,0:0:0:0:
460,192,47172,1,0,0:0:0:0:
358,192,48214,1,0,0:0:0:0:
153,192,49089,1,0,0:0:0:0:
51,192,50165,1,0,0:0:0:0:
358,192,51779,128,0,57261:0:0:0:0:
358,192,58338,128,0,58943:0:0:0:0:
358,192,59481,128,0,64963:0:0:0:0:
153,192,66207,128,0,69537:0:0:0:0:
460,192,70311,128,0,72598:0:0:0:0:
51,192,81477,5,0,0:0:0:0:
153,192,82586,1,0,0:0:0:0:
51,192,83192,1,0,0:0:0:0:
358,192,84100,1,0,0:0:0:0:
51,192,85109,1,0,0:0:0:0:
460,192,85916,1,0,0:0:0:0:
153,192,86824,1,0,0:0:0:0:
51,192,87799,1,0,0:0:0:0:
460,192,88741,1,0,0:0:0:0:
153,192,89750,1,0,0:0:0:0:
358,192,90591,1,0,0:0:0:0:
153,192,91533,1,0,0:0:0:0:
358,192,92407,1,0,0:0:0:0:
460,192,93214,1,0,0:0:0:0:
153,192,94190,1,0,0:0:0:0:
51,192,94761,1,0,0:0:0:0:
51,192,96207,1,0,0:0:0:0:
153,192,97183,1,0,0:0:0:0:
51,192,98057,1,0,0:0:0:0:
358,192,98932,1,0,0:0:0:0:
460,192,99907,1,0,0:0:0:0:
153,192,100781,1,0,0:0:0:0:
51,192,101757,1,0,0:0:0:0:
153,192,102598,1,0,0:0:0:0:
51,192,103607,1,0,0:0:0:0:
358,192,104515,1,0,0:0:0:0:
153,192,105490,1,0,0:0:0:0:
51,192,106364,1,0,0:0:0:0:
358,192,107239,1,0,0:0:0:0:
460,192,108046,1,0,0:0:0:0:
153,192,108618,1,0,0:0:0:0:
51,192,109089,1,0,0:0:0:0:
51,192,110737,128,0,115983:0:0:0:0:
358,192,117665,128,0,124526:0:0:0:0:
153,192,125367,128,0,128864:0:0:0:0:
460,192,129436,128,0,131353:0:0:0:0:
460,192,131420,128,0,132799:0:0:0:0:
358,192,133876,128,0,134481:0:0:0:0:
460,192,134784,128,0,135322:0:0:0:0:
358,192,135826,128,0,136566:0:0:0:0:
460,192,136869,128,0,137676:0:0:0:0:
460,192,137878,128,0,138517:0:0:0:0:
358,192,138719,128,0,139391:0:0:0:0:
460,192,139593,128,0,140165:0:0:0:0:
358,192,140636,128,0,140804:0:0:0:0:
460,192,141039,128,0,141207:0:0:0:0:
358,192,141510,128,0,141712:0:0:0:0:
460,192,142015,128,0,142216:0:0:0:0:
358,192,142452,128,0,142654:0:0:0:0:
358,192,144268,1,0,0:0:0:0:
460,192,144772,1,0,0:0:0:0:
358,192,145243,1,0,0:0:0:0:
460,192,145681,1,0,0:0:0:0:
153,192,146185,1,0,0:0:0:0:
51,192,146622,1,0,0:0:0:0:
153,192,147228,1,0,0:0:0:0:
51,192,147598,1,0,0:0:0:0:
153,192,148102,1,0,0:0:0:0:
51,192,148539,1,0,0:0:0:0:
153,192,149010,1,0,0:0:0:0:
51,192,149414,1,0,0:0:0:0:
153,192,149851,1,0,0:0:0:0:
51,192,150322,1,0,0:0:0:0:
153,192,150927,1,0,0:0:0:0:
51,192,151600,1,0,0:0:0:0:
153,192,152071,1,0,0:0:0:0:
51,192,152542,1,0,0:0:0:0:
153,192,153046,1,0,0:0:0:0:
51,192,153517,1,0,0:0:0:0:
153,192,153988,1,0,0:0:0:0:
51,192,154459,1,0,0:0:0:0:
153,192,154929,1,0,0:0:0:0:
51,192,155367,1,0,0:0:0:0:
153,192,155838,1,0,0:0:0:0:
51,192,156275,1,0,0:0:0:0:
153,192,156712,1,0,0:0:0:0:
51,192,157149,1,0,0:0:0:0:
153,192,157553,1,0,0:0:0:0:
51,192,158057,1,0,0:0:0:0:
153,192,158528,1,0,0:0:0:0:
358,192,158999,1,0,0:0:0:0:
460,192,159503,1,0,0:0:0:0:
358,192,159941,1,0,0:0:0:0:
460,192,160445,1,0,0:0:0:0:
358,192,160882,1,0,0:0:0:0:
153,192,161286,1,0,0:0:0:0:
51,192,161757,1,0,0:0:0:0:
153,192,162228,1,0,0:0:0:0:
358,192,162766,1,0,0:0:0:0:
460,192,163237,1,0,0:0:0:0:
153,192,163707,1,0,0:0:0:0:
51,192,164145,1,0,0:0:0:0:
153,192,164716,1,0,0:0:0:0:
51,192,165154,1,0,0:0:0:0:
153,192,165759,1,0,0:0:0:0:
358,192,166264,1,0,0:0:0:0:
460,192,166768,1,0,0:0:0:0:
153,192,167306,1,0,0:0:0:0:
51,192,167811,1,0,0:0:0:0:
153,192,168281,1,0,0:0:0:0:
153,192,168651,1,0,0:0:0:0:
153,192,169190,1,0,0:0:0:0:
51,192,169593,1,0,0:0:0:0:
153,192,169997,1,0,0:0:0:0:
51,192,170535,1,0,0:0:0:0:
153,192,171039,1,0,0:0:0:0:
51,192,171477,1,0,0:0:0:0:
153,192,171947,1,0,0:0:0:0:
51,192,172385,1,0,0:0:0:0:
153,192,172855,1,0,0:0:0:0:
51,192,173360,1,0,0:0:0:0:
358,192,173831,1,0,0:0:0:0:
153,192,174302,1,0,0:0:0:0:
358,192,174840,1,0,0:0:0:0:
153,192,175311,1,0,0:0:0:0:
358,192,175815,1,0,0:0:0:0:
153,192,176420,1,0,0:0:0:0:
358,192,176959,1,0,0:0:0:0:
153,192,177463,1,0,0:0:0:0:
358,192,177934,1,0,0:0:0:0:
153,192,178438,1,0,0:0:0:0:
460,192,178909,1,0,0:0:0:0:
153,192,179346,1,0,0:0:0:0:
51,192,179784,1,0,0:0:0:0:
153,192,180255,1,0,0:0:0:0:
51,192,180692,1,0,0:0:0:0:
153,192,181196,1,0,0:0:0:0:
51,192,181600,1,0,0:0:0:0:
153,192,182037,1,0,0:0:0:0:
51,192,182542,1,0,0:0:0:0:
153,192,182979,1,0,0:0:0:0:
51,192,183349,1,0,0:0:0:0:
153,192,183887,1,0,0:0:0:0:
51,192,184391,1,0,0:0:0:0:
153,192,184862,1,0,0:0:0:0:
51,192,185333,1,0,0:0:0:0:
153,192,185770,1,0,0:0:0:0:
51,192,186241,1,0,0:0:0:0:
153,192,186712,1,0,0:0:0:0:
51,192,187183,1,0,0:0:0:0:
153,192,187654,1,0,0:0:0:0:
51,192,188091,1,0,0:0:0:0:
153,192,188562,1,0,0:0:0:0:
51,192,188999,1,0,0:0:0:0:
153,192,189470,1,0,0:0:0:0:
51,192,189941,1,0,0:0:0:0:
153,192,190411,1,0,0:0:0:0:
51,192,190950,1,0,0:0:0:0:
358,192,191353,1,0,0:0:0:0:
460,192,191824,1,0,0:0:0:0:
358,192,192295,1,0,0:0:0:0:
460,192,192698,1,0,0:0:0:0:
358,192,193169,1,0,0:0:0:0:
460,192,193607,1,0,0:0:0:0:
358,192,194044,1,0,0:0:0:0:
460,192,194582,1,0,0:0:0:0:
358,192,195019,1,0,0:0:0:0:
460,192,195490,1,0,0:0:0:0:
153,192,195927,1,0,0:0:0:0:
51,192,196398,1,0,0:0:0:0:
358,192,196903,1,0,0:0:0:0:
460,192,197340,1,0,0:0:0:0:
153,192,198147,1,0,0:0:0:0:
51,192,198618,1,0,0:0:0:0:
51,192,207598,132,0,208607:0:0:0:0:
51,192,209716,128,0,210490:0:0:0:0:
153,192,211835,128,0,212642:0:0:0:0:
51,192,213315,128,0,214728:0:0:0:0:
153,192,215198,128,0,216376:0:0:0:0:
51,192,217116,128,0,217990:0:0:0:0:
153,192,218427,128,0,218562:0:0:0:0:
51,192,218898,128,0,219133:0:0:0:0:
153,192,219436,128,0,219638:0:0:0:0:
51,192,220815,128,0,223270:0:0:0:0:
358,192,224010,128,0,225490:0:0:0:0:
460,192,225793,128,0,226230:0:0:0:0:
358,192,226432,128,0,227373:0:0:0:0:
153,192,227945,128,0,229358:0:0:0:0:
51,192,229593,128,0,229829:0:0:0:0:
51,192,232015,128,0,235176:0:0:0:0:
153,192,235748,128,0,236454:0:0:0:0:
51,192,236858,128,0,238405:0:0:0:0:
358,192,239111,128,0,240120:0:0:0:0:
460,192,240355,128,0,240994:0:0:0:0:
358,192,241970,128,0,242642:0:0:0:0:
460,192,243012,128,0,247149:0:0:0:0:
153,192,247586,128,0,250210:0:0:0:0:
51,192,251454,128,0,251589:0:0:0:0:
153,192,252228,128,0,252665:0:0:0:0:
51,192,253203,128,0,253741:0:0:0:0:
153,192,254178,128,0,254649:0:0:0:0:
51,192,255053,128,0,255725:0:0:0:0:
153,192,256398,128,0,257340:0:0:0:0:
51,192,258214,1,0,0:0:0:0:
153,192,258685,1,0,0:0:0:0:
51,192,259122,1,0,0:0:0:0:
153,192,259627,1,0,0:0:0:0:
358,192,260165,1,0,0:0:0:0:
460,192,260602,1,0,0:0:0:0:
358,192,260972,1,0,0:0:0:0:
460,192,261443,1,0,0:0:0:0:
358,192,261880,1,0,0:0:0:0:
153,192,262284,1,0,0:0:0:0:
51,192,262755,1,0,0:0:0:0:
153,192,263192,1,0,0:0:0:0:
51,192,263494,1,0,0:0:0:0:
153,192,263864,1,0,0:0:0:0:
51,192,264201,1,0,0:0:0:0:
153,192,264537,1,0,0:0:0:0:
